Compile ffmpeg with srt


4. 6. mkv" 3> ffmpeg -i "v2. If you have any compliments or complaints to MSDN Support, feel free to contact [email protected] Ffmpeg Mkv To Mp3 Here is another example of Access violation error when building packages in Gentoo. ffmpeg -i movie. Therefore, it is expected that you will use the additional compilation options as shown in the wiki to deal with this when compiling ffmpeg. srt-live-server(SLS) is an open source live streaming server for low latency based on Secure Reliable Tranport(SRT). mp4 The next example will re-encode both video and audio: ffmpeg -i input. git mkdir srt/build cd srt/build cmake -DCMAKE_INSTALL_PREFIX="$HOME/ffmpeg_build" -DENABLE_C_DEPS=ON -DENABLE_SHARED=OFF -DENABLE_STATIC=ON. srt -vf subtitles gradedFinalwithSubs. ffmpeg cross compile failure. As you can see, building FFmpeg is quite a large project in itself. 5. Input #1, srt, from 'C:\Users Re: [FFmpeg-devel] [PATCH] lavf/srt: fix build fail when used the libsrt 1. mp4 out2. Debian was on libav for a while but went back to FFmpeg in 2015 [2]. 2 , please read ticket 1464 first, and try to update your compiler. Jun 18, 2018 · Code: Select all ffmpeg. complex ffmpeg command at most android-ffmpeg-java wrapper SRT is an open source video transport protocol and technology stack that optimizes streaming performance across unpredictable networks with secure streams and easy firewall traversal, bringing the best quality live video over the worst networks. g. To get the current version of FFmpeg. srt|v2. ts -c:v libx264 -crf 0 -c:a copy output. on Evita from 1996 First let Examining the source file with ffprobe and grep the Stream lines with the googdies ffprobe Evita. May 14, 2017. The only [article][1] that I've found, is either going over multiple hoops to setup a stream. A collection of tools to manipulate subtitles ffmpeg -i A. Usually I just put the srt file in the same folder as the avi, and it plays fine with the DivX player. Why GitHub? Features →. I did have to do some "improvisation" when compiling ffmpeg, but since the command runs just fine in a terminal I'm not ready to begin anew there. srt -c:v libx264 -preset ultrafast -ar 44100 -ac 2 -ab 128k -s Compiling FFmpeg from Source Code: All-in-One Script to Install Audio Video Codecs and the FFmpeg Suite. 0. While some Linux distributions (e. avi . avi · To force the frame rate of the output file to 24 fps: ffmpeg -i input. ffmpeg -y -nostdin -i "$1" -an -b:v 1800k \ -minrate 900k -maxrate 2610k -tile-columns 4 -g 240 -threads 8 -quality good -crf 31 -c:v libvpx-vp9 \ -pass 2 -speed 4 tos-1920x1080-24-30fps. 2. 92 Identify your strengths with a free online coding quiz, and skip resume and recruiter screens at multiple companies at once. 1Get the Source Code pytube is actively developed on GitHub, where the source isavailable. Mar 10, 2019 · How to rip subtitles from a movie file using ffmpeg. 9 (or 3. avi" -i "v1. Step 3 : Copy . The engine of a non-linear video editor that can be used in all sorts of apps, not just desktop video editors. Jun 08, 2020 · ffmpeg -i input. mkv -y May 25, 2019 · And before you ask, yes, I've done FFMPEG as well (that was my first approach), but it still can't download AES encrypted streams. Download FFmpeg builds for Windows or macOS, available as LGPL or GPL. approximately every six months, while Git builds are compiled multiple times a  FFmpeg is a cross platform, free, open source media encoder/decoder toolkit. Jan 14, 2016 · FYI, just did test FFMPEG source compile of binary itself not php extension, took approximately 20 minutes to compile. Close the main window and you are good to go. 7. aom: 2. By the way, ffmpeg/libav version number are really weird, I can't tell what version that is unless you run avconv -version. The procedure the add FFmpeg to Windows 7 path is similar to Windows 10 but the user interface is a bit different. That's it. xOBS v. 1 · GitHub Why GitHub? Features →. As such, libav tends to add features more slowly, while FFmpeg generally follows all of libav’s new features and bug fixes as well as its own [1]. mkv . Refer to FFmpeg's Compilation Guide for build instructions for your platform. 3. Options can be set on the ffmpeg/ffplay command line. The libsrt instructions in that answer does the same to fit with the wiki article. Mar 14, 2019 · Please let me know if i want to add some . (Alt MacOS version here) (Edited post above after I removed this step) It’s *quite* odd, I realize to have ffmpeg transcode both the audio/video together, only to split/demux them back out temporarily. as well as convert the XML timings to SRT timings. However, WebVTT cues can include arbitrary text – unlike SRT identifiers, which are numeric only. PAL systems use teletext captioning while NTSC systems use closed captions. * Make the azure pipelines really test new contaiers. X264 crf 18 vs 20 Transloadit allows you to merge an audio file and an image to generate a video. Oct 31, 2019 · Nope. Select the MKV video file and subtitle file(s) (. SRT Encoder基于srt自适应码率的编码器基于srt协议中的rtt,maxBw,inflight等信息预测低延时的出口带宽,动态的调整编码bitrate,从而实现基于网络出口带宽的编码。简单易用,使用ffmpeg命令行基于ffmpeg-4. 264 example: ffmpeg -i input. Fix de-interlacing software decoding issue with help of video render. It can be used to do most of our multimedia tasks quickly and easily say, audio compression, audio/video format conversion, extract images from a video and a lot more. ts -c:v libx264 -c:a copy output. avi -vf subtitles=subtitle. I’m never good at compiling stuff from the source. Also read about Glass-to-glass delivery setup with SRT to use SRT for all steps of delivery. Dec 09, 2019 · i'm new to shell script. git cd FFmpeg. git $ cd srt $ . Oct 03, 2018 · Cloning into 'ffmpeg' install prefix /opt/ffmpeg source path . 3. 4 files as a zip on the Downloads tab of your Wowza account. John Cartwright March 10, 2019 0 Comments Ripping the subtitles from a movie file is very easy, just use this command to rip the subs to a file for later perusal. (The compilation from the source code   Configure FFmpeg with “--enable –libmfx –enable-nonfree”, build, and install. I’m running OS 10. Im trying to set font and font size but i can use only one of the filters not both here is mine command . exe Linking CXX executable srt-file-transmit. 2) source. Nov 06, 2019 · Compile the video with the caption and resize: ffmpeg -i DJIG0170. sh $ ffmpeg -i foo. Edited September 25, 2019 by micdhack First, try Handbrake. New:Upgrade to FFMPEG 4. Using the latest main and dev build I am getting the above error when i try to build a static FFMPEG binary with SRT enabled. mp3 -c:a copy output. C compiler gcc C library glibc ARCH x86 (generic) big-endian no runtime cpu detection yes standalone assembly yes x86 assembler nasm MMX enabled yes MMXEXT enabled yes 3DNow! enabled yes 3DNow! extended enabled yes SSE enabled yes SSSE3 enabled yes AESNI enabled yes AVX enabled yes AVX2 enabled yes AVX-512 enabled yes XOP Movie. avi -b:v 64k -bufsize 64k output. This Haivision blog article can also be used as a how-to. But it needs to be built with the configure flag --enable-libsrt to include SRT. Parse and manipulate SRT (SubRip) Latest release 2. SD into HD Problem. Hilliard's everyday low price! Hilliard's everyday low price! View Details Primed Finger Jointed Pine 129 Base Shoe Molding. mp4 YouTube didn't like the greater-than sign. Jan 20, 2013 · The timestamps (milliseconds after the comma, because the original author of SRT files was French) are combined with the timestamps that were collected from ffprobe. $ git clone https://github. 转载博客:srt-live-server:一款基于SRT的毫秒级低延时直播服务器. sudo apt-get install libav-tools Opción 2: Instalar ffmpeg desde deb-multimedia. The tarball includes a copy of FFmpeg 2. avi" -i "v2. Download in other formats:. easycosi. Feb 05, 2014 · But it is possible to compile a kernel to handle ethernet over usb dongle. 0 - v3. FFmpeg is a comprehensive—and for some the de facto standard—software library collection for video conversion on Linux and BSD platforms. Open MKVToolNix. 1:9001 21 Feb 2014 I've tried Handbrake without any success , i converted the srt file in to ssa but i You can simply download a Linux build of ffmpeg or follow a  10 Oct 2017 If using the Wowza Streaming Engine 4. I started a thread on the Emby forums but… It does not appear you are following the compile guide, but if you were to do so then compiling instructions for Haivision SRT could look like: 11 Mar 2020 my configuration: ffmpeg version 4. However, for some videos, the “oggz-comment” step would wipe out the first video The way we compile ffmpeg (ubuntu/linux) is here. ) built for Windows 32/64bit from the latest (4. Aug 21, 2013 · By popular demand (according to page view stats), I've decided to refresh the Dec'2008 post ("HOWTO: compiling ffmpeg + x264 + MP3 + Xvid + AMR on Ubuntu 8. ts -c:v libx264 -c:a aac output. Linux: Fixed compilation errors with ffmpeg 4; Expert mode features: Default output file name can be customized using template; VC1 video can be saved as raw elementary stream, without FOURCC AVI encapsulation; Obsolete features: Removed UPNP streaming (Use VLC or Kodi with libmmbd instead) Linux: Removed mmdtsdec/libdcadec (Use latest ffmpeg I'm struggling to find a one line command to merge new subtitle and delete existing ones from video file. mkv -map 0:2 foo. Note. I can play the stream through ffplay on the same Linux system I have the server running on. Minor bug fixes and enhancements. jpg -i audio. 9. 264 for more info. Click on the Open Nov 08, 2012 · Live stream using FFmpeg with Wowza Streaming Engine; SRT, or RTMP streams for playback with WebRTC the project should compile, build, and run. srt A filtergraph is setup here using the "-filter_complex" option and consists of a single video filter. srt -c:v copy -c:a copy -preset veryfast -c:s mov_text -map 0 -map 1 output. Los dos comandos utilizan a menudo la misma sintaxis, pero las características tales como subtítulos del srt pueden trabajar solamente con ffmpeg. If you already have an SRT file that you wish to merge with your MP4 video, there are various ways on how to do this. vtt subtitle. 5 (the latest at this date), so you don't need to fetch it separately. img files to be burned in Toast under Multitrack XA window). srt A filtergraph is setup here using the -filter_complex option and consists of a single video filter. You need do make it to dvdsub which then crashes. srt:force_style='FontName=ubuntu, Fontsize=30' -qscale:v 3 out. I will try again to compile ffmpeg. mkv foo. Enter the following: ffmpeg -i video. Output (with the compile output trimmed) was: Code: May 14, 2015 · myFFmpeg is a graphical front-end for FFmpeg, a command-line tool used to convert multimedia files between formats. The way to convert BDMV folder to MKV on Mac OS X (macOS Mojave included) is almost the same. Go to the location on your computer where the MKV video and subtitle file(s) are stored. org ImageMagick version 7 changes the path to MagickWand. FFmpeg is a free software project that produces libraries, programs for handling multimedia data. No problemo, compile myself. mkv" or 2> ffmpeg -i "concat:v1. sub or . freenode. But Kinsky, the Linn's control point, doesn't see the NAS and the Linn DS even if they are on the same network, and even if the NAS and the DS can be seen by KinskyDesktop run on Mac or Linux. Mar 14, 2016 · Has anyone been able to successfully compile ffmpeg with x265 support for the Orange Pi on Armbian? The instructions are excellent, but I can't get past buil-dep libav, mostly because I can't get libopencv-dev, libavcodec* and libavformat* to install because of missing and un-installable dependencies. answers -1. It takes quite a while to compile ffmpeg on my machine, so doing a bisect would take forever for me. 3 does bring many updates, a number of bug fixes identified thanks to the feedback of users on our forum, and several other little refinements. This means that Web VTT identifier values may be useful and must therefore be stored. In Windows 8. exe 3) compile the basic program to exe with the name ffmpeg. Note that this filter is not FDA approved, nor are we medical professionals. A message to that effect is printed on running configure off the master branch. x; New:Support Delphi 10. transcode. srt" -strict experimental -c copy "v. Mar 22, 2020 · Questions that occur when trying to compile FFmpeg. mp4. FFMPEG Converter For Android is a wrapper of FFMPEG APIs for Delphi and C++Builder. 3 - Updated Apr 4, 2019 - 137 stars captioning/captioning. avi -strict -2 -vf subtitles=subtile. The version that comes with the current version of Raspbian and Debian have issues streaming, so the sources from deb-multimedia are needed. srt file names can be “michael001 Sep 14, 2012 · FFMpeg can be linked with external libraries to add features to FFmpeg. mov -i portSbs. mp4 Lossless files will be huge. This article provides a complete, ready-to-execute script to obtain, build, and install the FFmpeg suite alongside a selection of audio video codecs, and is a supplement to my detailed guide Compiling Software from Source Code on the Raspberry Pi Merge MP3 is a utility to merge multiple MP3 files into one long MP3 file. Teletext files are kept in srt files. Search through millions of questions and answers; User; Menu; Search through millions of questions and answers May 24, 2020 · Download M3U8 Video with FFmpeg. mp4 The file was successfully uploaded, but when I watched it on the website, the image disappeared and it turned grey. I have succeed to compile the SRT (SRT Library version: 1. 4. The "overlay" filter requires exactly two video inputs, but none are specified, so the first two available video streams are used, those of A. Sounds easy, I need to pass the subtitle file to be embedded which has srt extension. Other points of information: * I have tried opening the . 168. · To set the video bitrate of the output file to 64 kbit/s: ffmpeg -i input. mp4 but when I uploaded to video sharing websites (bilibili. avi -r 24 output. ffmpeg -i video. * Other files (without subtitles) works fine with the same ffmpeg binary FFmpeg Batch AV Converter is a front-end for Windows ffmpeg users, that allows to use the full potential of ffmpeg command line with a few mouse clicks in a convenient GUI with drag and drop, progress information, You can change encoding priority, pause and resume, set automatic shutdown. srt, . 98 fps, 23. While there are no big individual changes, CoreELEC 9. cue files for burning with Toast by dropping the . srt \ -map 0:0 -map 0:1 -map 1:0 -c:v copy -c:a copy \ -c:s srt output. Warning: It seems for ffmpeg that to compile for x64, you have to be under an x64 OS. exe /home/josh Apr 23, 2017 · Running ex. Sep 28, 2014 · This also allows me to substantially reduce my package repository storage and bandwidth costs. Run ffmpeg -i grdedFinal. the official ffmpeg package not builded these codec, (license issues) so I look at the AUR . Note: If you add more than one . Checking this option fixes this issue. 8. srt files to the MP4 folder, you can rename the . srt" -strict experimental -c ffmpeg -i input. This software utilises the FFmpeg command line software licensed under the GPLv3. SubRip: 11 Jul 2020 49 echo "Disabling this configure test will create a broken FFmpeg. If you want to use Media Server Studio 2017 with a Skylake processor, see this article. srt; Movie. x") for Ubuntu 12. Ffmpeg Convert Subtitles Ip Srt Ip Srt We know the FFMPEG is very helpful on Multimedia oriented task, like video/Audio conversion, change the formats, make different formats and etc. mp4 will, if I play the resulting mp4 file with mplayer, work, as long as the sub and idx files, (or whatever format, such as srt, the subtitle file or files use), are in the same directory as the mp4. patch or i am not following correct procedure to build ffmpeg or anything else ? Thanks in advance!!!!! Stack Exchange network consists of 177 Q&A communities including Stack Overflow, the largest, most trusted online community for developers to learn, share their knowledge, and build their careers. export PKG_CONFIG_PATH="/usr/local/lib/pkgconfig" FFmpeg is a powerful multimedia framework which allows us to decode, encode, transcode, stream, filter and play most of the media content available now. Currently, in the case of a failure to build an image,the "test" to check buildconf just causes the pipeline to download the latest successful version from dockerhub If we create a dummy named container just for the purposes of running that sanity check then there won't be a container on dockerhub which might not wor I expect this PR will - Changed font for the FFmpeg Info, Detailed Info and FFmpeg log windows to Courier. Adapter allows source images of virtually any size, shape, or format and can export to almost any video format and resolution including 1080p and even 4k. I downloaded VobSub, VSFilter, but none of them are doing the trick. 1. Any chances of reading subtitles from a mkv or a srt? Great work btw. ffmpeg -version Get available formats ffmpeg -formats Subtitling. ssa Hardsubbing Set up SRT streaming. com/Haivision/srt. Save . FFmpeg is a complete, cross platform command line tool capable of recording, converting and streaming digital audio and video in various formats. eng. Normally, the latency of transport by SLS is less than 1 second in internet. Will test FFMPEG PHP extension compile again to see if it works on FFMPEG source compiled Full source compile logged output at ffmpeg source compile 30/11/15 for centminmod centos 7. /configure --toolchain=msvc --arch=x64 --enable-yasm --enable-asm --enable-shared --enable-protocol=SRT I also tried --enable-protocol=LIBSRT ,but the result is the same one. I am adding most features to FFMpeg by compiling additional libraries. sub; Movie. That will print the version numbers for all components. FFmpeg is a command line-only program that allows you to convert videos and audio into different formats, as well as record Dec 12, 2019 · # We need SRT to be installed in the system also to be SRT Ready ! sudo make install # If you like to Compile a ffmpeg on Rasberry with OMX enable h264_omx. avi and C. avi" -i "concat:v1. 0: Codec library for encoding and decoding AV1 video streams: dav1d: 0. Try the homebrew-ffmpeg tap: brew tap  28 Mar 2019 This is the SDK that we will compile and include in our ffmpeg build. Oct 02, 2018 · FFMPEG is also free and open-source. Output File: test1. A bunch of scripts you can use to compile FFmpeg with OpenSSL. Just like 1. There is the feedback that SRT can't be built by ffmpeg if both --enable-libsrt and --enable-shared options are specified. mkv Rendering Subtitles into the Video [ edit ] Subtitles may be rendered permanently into the video stream by specifying a complex filter on the command line: FFmpeg will now convert and merge your SRT subtitles with your MP4 video (movie). So there are some gaps. My OMV server is up to date. 264/AAC or VP8/Vorbis/FLAC codecs, cutting the video at certain commercial points detected by either MythTV or by Comskip. With the help of these tools, you can develop and application that can manipulate any form of media to the desired output. , Ubuntu, Gentoo, Slackware, Arch Linux, OpenSuSE) include FFmpeg, Windows users have to install additional packages to setup FFmpeg: MinGW/MSYS or cygwin or a special version of the gcc compiler with related tools or I am trying to compile ffmpeg with libsrt and libmfx on Ubuntu so that I can make use of srt and vaapi functions on my server. - Renamed option ‘Convert H264 bitstream from length to start code prefixed mode’ to ‘Convert H264 or HEVC bitstream from length to start code prefixed mode’. if you need to generate multiple FFM feeds with a single ffmpeg instance, you should launch ffmpeg by hand. First, remove the old files and then update the dependencies: rm -rf ~/ffmpeg_build ~/bin/{ffmpeg,ffprobe,ffserver,lame,vsyasm,x264,x265,yasm,ytasm} # yum install autoconf automake cmake gcc gcc-c++ git libtool make mercurial nasm pkgconfig zlib-devel I am trying to compile ffmpeg with libsrt and libmfx on Ubuntu so that I can make use of srt and vaapi functions on my server. In 2018, the Rust community decided to improve programming experience for a few distinct domains (see the 2018 roadmap). com/rdp/ffmpeg-windows-build-helpers --with-speex Build with speex support --with-srt Enable SRT library --with-tesseract Enable the tesseract   5 Jul 2020 For the development version, install the ffmpeg-gitAUR package. SubRip: $ ffmpeg -i foo. py install FFMpeg. Ffmpeg Convert Subtitles Mar 02, 2016 · SRT is one of the most common subtitle files. Authors as VCD or K/XVCD (. mp3) – SRT Lyrics (test. srt ffmpeg -i Sep 23, 2014 · I followed this guide https://gist. Obs ffmpeg Register here Get the job done faster online. This allows you to use FFmpeg without detailed command-line knowledge. 39 /foot. mp4 -f srt -i input. If you want to compile for x64, start the mingw64 shell. Linking CXX executable srt-live-transmit. ImageMagick version 6 retains the old path but the package name in pkg-config has changed (to avoid conflict with ImageMagick 7, I guess) and thus won't pass the depedency check. Click on the + Add source files button located at the bottom. mp4 -vn -an -codec:s:0 srt out. To install the version of the system: $ sudo apt-get install libx265-dev. Most documentation out there is not updated to 2015, yet compiling ffmpeg on Windows is pretty easy. It includes libavcodec - the leading audio/video codec library. 1 is compatible with the FFmpeg 2. Ellison; 7; 2020-05-21 12:45 How to configure x86_64. srt DJIG0170substrim. ffmpeg -i A. Flowblade is an intuitive open source video editor available only for Linux. +# - Incorporating static Qt libraries into the package is libfdk_aac / ffmpeg AAC Encoder. avi -sub_charenc ISO-8859-1 -i subtitle. org/ffmpeg-protocols. So the server is up and running, and I can play it with ffplay on Linux and it works on Windows OBS - but it just refuses to start the media in OBS on Linux. 4 An alternative to the drawtext filter is to use ASS or SRT subtitles if you don't want to compile. ffmpeg has come a long way since the pre-1. Of course, you can specify any codecs that you want (and any other additional options related to audio/video). b54b92ebb47387a with more or less success but when trying to run ffmpeg I get a message that there are no available NVENC encoders. 7 Note your file's name. Unfortunately I'm rather busy at the moment, so I would have to wait until I have more time. It contains the libass, SRT/SSA/ASS (SubRip / SubStation Alpha) subtitle support . azadiyame Posts: 1 Joined: Sun Mar 22, 2020 1:47 pm. The time it takes depends on the file size of your video file, the output quality settings you choose, your computer's hardware, and the video converter (software). Running Storyboard can be really simple: $ storyboard "Night of the Living Dead (1968). html#srt First install the FFmpeg package using either Homebrew or a binary build. mkv ffmpeg supports the mov_text subtitle encoder which is about the only one supported in an MP4 container and playable by iTunes, Quicktime, iOS etc. To enable libass library you need to configure FFmpeg with --enable-libass. mp4”, the . VLC player skulle håndtere SRT og via UDP dermed skulle OBS/VLC og tilsvarende fint kunne inkludere SRT hvis jeg er lidt heldig - ellers er det måske ligesom med min installeret FFmpeg noget som også skal compileres med i VLC playeren. A typical use case would be showing an album cover of an audio track that doesn't have a real video clip. srt -vcodec h264 -acodec ac3 -scodec srt -metadata:s:s:0 language=ita output2. 0, or whatever name will be chosen). srt" -strict experimental -vcodec copy -acodec copy -scodec srt "v. It can be created using any text editor like notepad. Apr 16, 2019 · Equally as useful and as simple to do with ffmpeg is to add subtitles to a video (for example a movie). FFmpeg Project Logo – Image: Wikicommons. py #!/usr/bin/env python # -*- coding: utf-8 -*- ''' This program uses a MythTV database or WTV recording to transcode recorded TV programs to MPEG-4 or Matroska video using the H. In the mingw shell you have opened, go into the "C:\x264_Prg\" directory with the following command : Jan 01, 2020 · All major audio/video formats supported with the help of FFMpeg libraries; Platforms available on: Linux. srt out. ffmpeg-GUI stellt die wichtigsten über die GUI zur Verfügung. Jul 25, 2016 · NOTE: this document covers Intel’s Media Server Studio 2016. 265. 2) at the moment; use all the optimizations for compiling the ffmpeg and the libraries for you current processor. Make sure the commands cmake and ccmake are Mar 03, 2020 · Have multiple MP4 video files and want to merge MP4 files into one? How do I merge those mp4 files in Windows 10 and Mac? See how to use Filmora9 mp4 video merger to combine videos with only 4 steps n Srt encoder. So used some alternative method which is embedding subtitles to the video with ffmpeg. libcaca, Add static-libs, Build static versions of dynamic libraries as well. Install FFMPEG on OS X with HomeBrew to convert Mp4 to WebM - ffmpeg-install. Developers may also be able to integrate FFMPEG into other projects. The arrow symbol ("-->") on the timestamp line of the cue is distinguished. Hi, I am trying to use msys64 to compile ffmpeg with --enable-protocol=SRT,but it shows no use My command $ . cht. Compression Libraries: Zlib and bzLib Get the zlib source (zlib127. avi Feb 20, 2016 · Like i said we have ARM cpus at least one guy is compiling FFMPEG for it. ts -c:v copy -c:a copy -f mpegts udp://127. See FFmpeg Wiki: H. Code review; Project management; Integrations; Actions; Packages; Security I have compiled ffmpeg with libsrt and everything needed. So if SubJunk (or some one else) fixes ffmpeg sub handling I'm all for dumping mencoder since it is more active and new features are actually added Sau quá trình học tập và làm việc với FFMPEG, mình phải khẳng định rằng FFMPEG là một phần mềm xử lý audio, video đơn giản, miễn phí và hiệu quả. srt:force_style=’FontName=Arial,FontSize=14″ -shortest test1. From the latest git head, I try to configure ffmpeg with —arch=x86_64, but it ends up with x86 (generic). Input Files – Image (test. FFmpeg is a collection of libraries and tools to process multimedia content such as audio, video, subtitles FFmpeg codebase is mainly LGPL-licensed with optional components licensed under GPL. 28 Sep 2011 Minimal build of ffmpeg on a windows operating system and one usage example. 9 on a Mac Pro 5,1. FFmpeg is a complete, cross-platform solution to record, convert and stream audio and video. Updated x264 to r2638; Updated fontconfig to 2. This wikiHow teaches you how to install FFmpeg onto your Windows 10 computer. org mailing list or IRC #ffmpeg on Using Red5 Pro To Record and View Video On Demand. And I try to use --enable-libsrt,the command is If you have another format, like SSA, for example, you'll probably find that ffmpeg does a pretty good job converting it with ffmpeg -i foo. it Ip Srt I first tried: ffmpeg -y -i image. ” —Craig Bruce The HandBrake Team is pleased to announce the release of HandBrake 1. bin into VCD window). srt file. com), it says "no video track", so I tried: ffmpeg -r 1 -loop 1 -i image. Development of FFmpeg is active and an occasional update can give you new features and bug fixes. It says I can't post links. There is also Add -c:s srt to save subtitles in desirable format, e. avi -i C. If using this to update your Java installation, you must unzip the package, select the folder that matches your Operating System, and then copy and paste the contents into your Wowza Streaming Engine [install-dir]/jre directory. However, it was still helpful - it revealed that the encryption method is SAMPLE-AES rather than AES-128. When i  8 Dec 2019 FFmpeg Compilation Guide. For some reason, this time it just won’t work. Subtitle Edit Overview. Updated to latest FFMPEG. Compile nginx with rtmp module¶ Firstly, we'll need to compile nginx with the nginx-rtmp-module. 1 if possible. 1: XML-based font configuration API for X Windows ffmpeg -i input. However, you Stream #0:0: Video: mjpeg, yuvj420p(pc, bt470bg/unknown/unknown), 1280x720 [SAR 1:1 DAR 16:9], 25 tbr, 1200k tbn, 25 tbc Hey, I’m having some trouble playing an AVI file with SRT subtitles I downloaded. Scenarios where you might need to use ffmpeg over Handbrake: Handbrake doesn’t have video passthrough and only limited audio passthrough; Handbrake can only import SRT subtitles; Avconv vs ffmpeg: Short answer, ffmpeg is better because it also implements changes from WebVTT cue identifiers are optional; SRT cue identifiers are required. Then test that the software is properly installed. The way we compile ffmpeg (ubuntu/linux) is here. bin/. 855 likes. Creates AVI or MPG files with two audio tracks. Today I spent some time to compile ffmpeg libs on Windows. disable ffmpeg build 117 --disable-ffplay disable ffplay build 118 SRT protocol via libsrt [no] 269 --enable-libssh enable SFTP protocol via libssh [no] 270  ffmpeg -formats # print the list of supported file formats $ ffmpeg -codecs Also you can download libfdk_aac from http://sourceforge. Now follow this article to see how to set up SRT streaming in all modes using WMSPanel control web service. jpg) – MP3 File (test. May 14, 2020 · How to Install FFmpeg on Windows. If you don't want to compile the executable, add the option --disable-cli to configure. mp4 -i subtitles. The default value is 131,072 bytes. Use “-march=native” Oct 02, 2010 · Notes: For your convenience, we've provided the OpenJDK Java SE JRE 9. org mailing list or IRC #ffmpeg on irc. log" produced by configure as this will help solve the problem. 1 was released. H. ssa Add -c:s srt to save subtitles in desirable format, e. 2, this version will not work with current FFmpeg master branch, nor with the upcoming FFmpeg 2. Moritz Barsnick Sun, 12 Jul 2020 05:40:14 -0700 Re: [FFmpeg-devel] [PATCH] lavf/srt: fix build fail when used the libsrt 1. Acquiring subtitles I won't go into too much detail on this, since you probably will have good enough luck Googling "[movie] [language] subtitle", but here are some recommendations: The compile guide "installs" external libraries into ~/ffmpeg_build for a variety of reasons. zip Oct 09, 2015 · If you want to compile for x86, in msys2, start the mingw32 shell. A more sophisticated solution would be required to detect and extract only the default track, or perhaps to handle some more complex situations. mp4 +# - Updates to several internal libraries: ffmpeg, libass, +# libbluray, live555, libssh2. If I understand correctly redistributing FFMPEG with --enable-nonfree is forbidden. FFmpeg has added a realtime bright flash removal filter to libavfilter. git clone https://github. avi · To force the frame rate of the input file (valid for raw formats only) to 1 fps and the frame rate of the output file to 24 fps: ffmpeg This invalid character broke ffmpeg and the subtitles were not burned into the video. 0 Released Saturday, December 22, 2018 “It’s hardware that makes a machine fast. stf file with VLC and it plays fine and has the subtitles burnt in. 1 post • Page 1 of 1. srt ffmpeg -i Stack Exchange Network Stack Exchange network consists of 177 Q&A communities including Stack Overflow , the largest, most trusted online community for developers to learn, share their knowledge, and build their careers. 0  10 Jan 2020 The official homebrew recipe does not support libsrt among some other stuff too. In order to use such a technique, you need your ffmpeg to be compiled with libfreetype. Sep 15, 2016 · FFmpeg also gives you the benefit of being able to passthrough audio. The authoritative ImageMagick web site is https://imagemagick. h and make this package will fail to compile. mp3 -acodec copy -r 1 -shortest output. Introduction. 5 depends: ccextractor, comskip, comcut/comchap, ffmpeg, and a good comskip. I've tried both embyserver:latest and embyserver:beta. Just look at this dependency chain! Feb 16, 2020 · MLT Multimedia Framework Author, manage, and run multitrack audio/video compositions. 2 days ago · Let's take a look at the necessary changes to get your NVENC encoding to look comparable to x264 medium (or better). Compile ffmpeg libs on Windows with Visual Studio compiler 30 Jun 2015 by Marco Pracucci Comments. 25 has many bug fixed and new feature was added, especially SRT protocol! I test SRT protocol with wowza streaming server. Add SRT to MP4 while converting MP4 to other video formats like AVI, WMV, MKV, MOV and embed subtitle to VOB, MPG, FLV and more. github. Enjoy all the benefits of using Hilti's Website. Best regards WebVTT cue identifiers are optional; SRT cue identifiers are required. /make FFmpeg Command Line. Autosave/recovery of changed subtitles. Compare Oct 02, 2010 · Notes: For your convenience, we've provided the OpenJDK Java SE JRE 9. Better SRT support. Compiling FFmpeg on CentOS / RHEL / Fedora Note: If you are using gcc-4. mkv myfile. Apr 20, 2018 · libav (no wildcard) is a fork of FFmpeg that is broadly focused on reducing bloat and cleaning up the API. 3-1, FFMPEG from 1:4. Using the command: ffmpeg -i videopath. the ffmpeg-full or ffmpeg-libfdk_aac surprisingly not work, still no libfdk_aac encoder. So if SubJunk (or some one else) fixes ffmpeg sub handling I'm all for dumping mencoder since it is more active and new features are actually added Nov 06, 2019 · Simple steps to convert BDMV files to MKV files losslessly. avi|v2. So I edit PKGBUID and add this line to line #35 and it compile just Apr 08, 2009 · Uh, it's not letting me post my post. ffmpeg -y -i INPUT -map 0:s:0 OUTPUT. We have support of internal subtiles that has some bugs we need to fix, also we need to add support of external SRT subtitles. Accurately implement Object-Oriented concepts using Java. mov and paste the console output into your question. In other words, ffmpeg -i myfile. com/FFmpeg/FFmpeg. Anyone can download the software without any cost. Stack Exchange Network. Fixed Linux GTK L&F bug with time-spinner under Java 6. That's fine too, I just don't have any idea when this will be. avi" Storyboard will first look for a file named Night of the Living Dead (1968). srt file name like this: if source MP4 file name is “michael. x releases. srt to use for subtitles, but if one doesn't exist, it will try and extract subtitles from the video, and if those don't exist, it will search online and present a list of subtitles to choose from DE srt SubRip subtitle D stl Spruce subtitle format I saw the problem its i need to re-compile again ffmpeg, with libx264 encoder support enabled. mkv -c:s srt foo. Unfortunately, the default build included in Ubuntu is usually quite outdated, as well as lacking support for many It's taken me a month of Sundays (Mondays, Tuesday and Wednesdays) but finally got a FULL set of fully feature enabled 4. 2) Click on Media->Open Capture Device. Add support of System and Windows Media codecs. Stack Exchange network consists of 177 Q&A communities including Stack Overflow, the largest, most trusted online community for developers to learn, share their knowledge, and build their careers. FFmpeg is a free and open-source project consisting of a vast software suite of libraries and programs for handling video, audio, and other multimedia files and streams. With its elaborate system of routing filter outputs, its ability to capture video from video cards, and support for GPU-based … Continue reading Building FFMPEG with support for DeckLink for ffmpeg important bit to get txt_format is to install/compile ffmpeg : --enable-libzvbi Actions Pietro Passarelli changed description of Extract captions from IP video feed I'm looking for a way that burning subtitles to mp4 videos with ffmpeg. webm This should convert only the video and subtitles if SRT. Converts SRT subtitles to DVD Studio Pro 1. vlc-cache-gen segfaults I compile my own ffmpeg and vlc packages, on a system running slackware-current and AlienBob's KDE5 packages. Nor has this filter been tested with anyone who has photosensitive epilepsy. 11. Dec 14, 2016 · The whole point of this post was to keep things simple, thus the commonly used Zeranoe builds, and not how to compile your own FFMPEG with --enable-nonfree and the rest. latest version of GNU C library and the compiler GNU GCC (version 8. you want the bleeding edge versions of the video libraries like x264, x265, ffmpeg the latest version and so on. Puede instalar "avconv" que tiene casi el mismo uso que "ffmpeg". Q&A for Ubuntu users and developers. . Once duplicates/very-near-misses are trimmed and a timeline is established, FFmpeg is again used, this time to extract the individual frames. FFmpeg is a collection of libraries for handling video and audio codecs that is compatible  https://github. At its core is the FFmpeg program itself, designed for command-line-based processing of video and audio files, and widely used for format transcoding, basic editing (trimming and concatenation), video scaling, video post Ffmpeg ts to mp4 $0. – Gyan Jan 31 '16 at 9:01 @Mulvya Thanks very much for the helpful comments, I pasted additional output. Save money on shipping when you order online Better Video Player supports captions through subtitles in 2 formats: SRT and WEBVTT. srt -i subtitle. Released earlier this month, the latest version of the free & open source multimedia player (which also uses the GStreamer framework) now contains SRT modules which had been in development in VLC's master branch. srt" -strict experimental -c copy "v1. ini file. so far i've been able to batch convert an entire folder using ffmpeg with a "for" loop. Subtitle Edit is a free (open source) editor for video subtitles - a subtitle editor :) With SE you can easily adjust a subtitle if it is out of sync with the video in several different ways. This is the SDK that we will compile and include in our ffmpeg FFmpeg. sudo apt-get install libssl-dev cd ~/ffmpeg_sources git clone --depth 1 https://github. srt) FFMPEG Command # ffmpeg -loop 1 -y -i test. Following last week's blog post announcing SRT in GStreamer, I'd like to briefly discuss another way to use an SRT stream: with VLC 3. Automatic translate of subtitles through Google. net/projects/opencore-amr/? source=dlp and compile it: $ . Small GUI improvements. Mar 28, 2019 · Compiling SRT with ffmpeg Havision, one of the founders of SRT, provides an open source SDK to enable SRT support in your software. However, for some videos, the “oggz-comment” step would wipe out the first video Convert Media Streams Using FFMPEG Add subtitle from a stream: ffmpeg. here's the command i use to embed subtitles, want help to turn this into a shell script that's able to do this in batch mode. #3. 1: AV1 decoder targeted to be small and fast: fontconfig: 2. Ffmpeg Convert Subtitles Srt Hardware Encoder Ffmpeg nvenc h265 Upgrade FFmpeg (libavformat and libavcodec) audio/video codec and demux library Improved Blu-ray Disc and harddrive playback support of unencrypted bdmv and mpls files without menus Removed subtitle caching (as it was only needed on Xbox because of the severe memory restrictions) I am trying to add a subtitle to a video using ffmpeg and a . srt -map 0:0 -map 0:1 -map 1:0 -map 2:0 -c:v:0 libx264 -preset slower -c:a:0 copy -c:s copy -metadata:s:a title= -metadata:s:s:0 language=chi -c:s copy -metadata:s:a title= -metadata:s:s:1 language=eng output. idx; 3. Over the years, there have been many who have wanted to compile the Android platform with the Snapdragon LLVM Compiler, which has several performance enhancements for Snapdragon chipsets, such as improved Krait targeting and enhanced auto-vectorization for the NEON SIMD. mp4 -s 2560x1440 -aspect 4:3 -b:v 30M -vf subtitles=DJIG0170test. Enjoy :) ffmpeg is THE audio/video conversion tool. Vì vậy, bài viết này sẽ hướng dẫn tìm hiểu FFmpeg cơ bản. Jun 02, 2020 · How to Embed SRT to MP4 Permanently with the Freeware . For these, you can find many high-quality crates and some awesome guides on how to get started. Forces the maximum packet size for sending/receiving data. 1, 通过自定义的ffmpeg,实现srt自适应码率编码器。 Apr 30, 2019 · 8) Forced End Process of ffmpeg to regain CPU 9) Stream to Roku 3 Box 10) MKV with Subtitles - Roku sees available Subs but cannot display (Subtitles are srt files embedded within the mkv) 11) ffmpeg is running and consuming almost 100% of CPU (all 4 cores are running) 12) Stopped the Streaming 13) Forced End Process of ffmpeg to regain CPU I'm having a hard finding a simple solution to showcase the srt streaming protocol with FFmpeg. Note: This tutorial also applies to any of the followings: #1. 20 Feb 2018 As we can infer from the name, VLC has input/output SRT modules. In ffmpeg doing this on an mp4 with srt simply just fails. To avoid being misled, users are encouraged to verify conformance using the ONVIF Conformant Products search page, which is the only authoritative source for Linux: Fixed compilation errors with ffmpeg 4; Expert mode features: Default output file name can be customized using template; VC1 video can be saved as raw elementary stream, without FOURCC AVI encapsulation; Obsolete features: Removed UPNP streaming (Use VLC or Kodi with libmmbd instead) Linux: Removed mmdtsdec/libdcadec (Use latest ffmpeg Ip Srt - ybgg. This requires copying include files to /opt/intel/mediasdk/include/mfx and adding a  Did anyone succeed in compiling ffmpeg for the C2? Any ideas how to get over this error? Here's what I did so far: Install serveral a/v libraries  5 Jun 2015 We have released a set of Compilation Instructions for a WinRT compatible build of FFmpeg. I tried following the instructions from "How to compile FFmpeg for Ubuntu" at Compile How could set the default font size of srt file from it configuration? SRT srtsink with srtsrc fails locally with ":No room to store incoming packet" Using ffmpeg as a sender works, but delivering to a remote Wowza with too high bitrate produced the same errors. {srt,ass} This only removes the first subtitle track from the file. Code review; Project management; Integrations; Actions; Packages; Security Converts SRT subtitles to DVD Studio Pro 1. 5 format. Originally was having issues after following the compile guide on the ffmpeg page because apparently the extra libraries need to be compiled with -enabled-shared and -fPIC in cmake flags as otherwise OBS compile fails. Add FFmpeg to Windows 7 or Windows 8 Path. so mpv-9999 can be built only with ffmpeg-mpv-9999. 2. jpg: Invalid argument), but works using 2. But i can't batch embed subtitles from a external . Srt encoder News. --enable-libsrt enable Haivision SRT protocol via libsrt --enable-thumb compile for Thumb ffmpeg-user@ffmpeg. net. srt file according to the video name. FFmpeg was compiled using the following command line:. Just to make sure I understand, when extract is selected, are subtitles converted to srt or just extracted? https://file. FFmpeg supports SRT protocol out of the box. This page contains a list of resources which describe the necessary steps required for compiling FFmpeg from  But it needs to be built with the configure flag --enable-libsrt to include SRT. rm srt vobsub roq stl voc Fails at the same spot with ffmpeg. #137 Feb 23, 2016. mp3 -vf subtitles=”f=test. 1 Copyright (c) 2000-2019 the FFmpeg developers built with Apple clang version 11. It’s software that makes a fast machine slow. 13 Feb 2020 Learn how to compile FFmpeg on the Raspberry Pi. The option "Downgrade SSA/ASS subtitles to SRT" is used to force a conversion of SubStation Alpha subtitles (SSA/ASS) to SubRip (SRT) before burning them in the video. Let’s create them in bash: FFmpeg. A “Add media files” window will appear. mp4 -filter_complex "overlay" out1. FFmpeg and its photosensitivity filter are not making any medical claims. mkv -i B. CoreELEC 9. The guide below is for Windows users. It's free, confidential, includes a free flight and hotel, along with help to study to pass interviews and negotiate a high salary! Hello,I've tried to install Emby via Docker but no matter what I do, the plugin crashes with a Segmentation Fault within 90 s. Most of these libraries are also covered in my posts on compiling MPlayer and Mencoder. The following options are supported: pkt_size. We use ffmpeg 1. Yes, it is a bummer that we do not have cross-platform support for this. Intuitive user interface and high merge speed combined with absolutely free license FFmpeg Basics by Frantisek Korbel, describes various FFmpeg features and common tasks. com Sun, 12 Jul 2020 08:12:17 -0700 I have checked the FFMpeg documentation and many forums and figured out the correct command-line to extract subtitles from an . it is some hot bug fixed. ffmpeg must be compiled with the –enable-libzmq option to support this protocol. mkv" then i also tried in two steps : 3> ffmpeg -i "v1. jpg -i test. Run these commands: sudo yum update Also, when I use an ffmpeg git version from Feb 4th, VLC plays it just fine. MP4 video should look like so: ffmpeg -i video. - Now shows the physical file size instead of the data length for media files. We will use -r option to specify rate and -f option for the format. Mplayer 1. ACL spec Specify the list of IP address which are allowed or denied to write the feed. 1) with srt-ffplay srt-file-transmit srt-live-transmit srt-tunnel on my RaspberryP4 with Raspian I am still trying to compile ffmpeg to also include the SRT protocol but maybe its not needed - I am not sure about it as I am new to this and just trying to improve my current setup with SRT. 5. mkv -vf scale = 1280 : 720 scaled. On the other hand mencoder don't support rtmp which ffmpeg does. How can I make it post my log (I think it's the log that's the problem)? Post the Fixed compile issues with ffmpeg under OS X 10. 0 released, few day later version 25. ffmpeg -i subtitle. Its source can be downloaded here Using Storyboard. 7. We would like to update FFmpeg to last available 2. In case you need a more complex ffmpeg configuration, e. Also burn subtitles into your video using the libass library. 4. ssa foo. mp4 -i subtitlefilepath. Updated x264 to r2695, which improves speed and quality; 2015-10-28 – SB64. 0!. Antiviral Antiviral in text format Has anyone had chance to play with the latest release of FFmpeg that allows full NDI I/O? I'm on Ubuntu Server 16, and I've compiled it with the SDK and installed the libraries but it Sep 24, 2019 · Here is an example file that won't play the subtitles on chrome, under extract or otherwise. 98 tbr, 1k tbn, 47. I’ve tried in VLC player, but no luck. 95 tb May 10, 2020 · 9. 13. 04. srt However, I get the following error, which lends me to question whether this is feasible at all: And even compiling the latest ffmpeg may not be enough since all the codecs you have installed are also mostly outdated, but it's a good start. All you have to do is execute a single line command. make make install Then continue with the guide. mp4 Lossless H. Changes for v3. If you compile this example with not modified ffmpeg-android-build script, you only get support for playing local mp4 files. /configure 18 May 2018 Hi guys. Video-On-Demand (VOD) is a subscriber paradigm wherein users can select a pre-recorded stream to watch if and when they wish to do so. 0 or later installer to install a Configure the SRT destination to receive and distribute the stream 12 Jul 2020 FFmpeg can use a Video4Linux compatible video source and any Open Sound System audio source. This option is ignored in case the commandline option -n is specified. exe -i movie_src. 2 ffmpeg and tools (ffplay, ffprobe etc. #2. I have compiled ffmpeg with libsrt and everything needed. NOTE: In order to compile the executable x264, make sure you have installed the latest libraries which are delivered with FFmpeg. Downloading HLS videos with FFmpeg is way easier than you think. Thus, it works well with firefox and console network commands. In this article, I will give you three methods on how you can merge SRT with MP4 file. Jul 02, 2011 · Changelog: 2016-05-07 – SB65. myp@gmail. This package is known to build and work  18 May 2020 NewTek and Secure Reliable Transport (SRT) Integration FFmpeg SRT protocol information https://ffmpeg. I used the following command to convert and burn subtitle but its not worked ! ffmpeg -i subtitle. MacPro5,1 - 2. srt When dealing with multiple subtitles, you may need to specify the stream that needs to be extracted using the -map key:stream parameter: $ ffmpeg -i foo. idx). A complete, cross-platform solution to record, convert and stream audio and video. If you’re looking for a copy and paste solution, keep reading. 20 Jan 2020 Live Transcoder for Nimble Streamer allows using custom builds of FFmpeg to utilize any encoding and filters libraries. modules in VLC, also GStreamer SRT plugins will have helped you to build SRT ffmpeg -re -i output. configure make -j$nproc sudo make install. Upgrade SRT package. --enable-nonfree is needed if you want to --enable-cuvid and --enable-libnpp. This time the build process could not make a symbolic link in “/usr/bin” and FFmpeg is a free and open-source project consisting of a vast software suite of libraries and programs for handling video, audio, and other multimedia files and streams. FFmpeg is published under the GNU Lesser General Public License 2. Add SRT file to MP4 without re-encoding and keep original quality. it is quite simple to use. Is there no way to do a simple receiver/sender principle like in the old days with udp? Compile Image Sequences to Video Adapter is a great way to compile images captured with a GoPro Hero or other camera into timelapse videos, slideshows, or stop motion animations. io/l0KB50. , Ubuntu, Gentoo, Slackware, Arch Linux, OpenSuSE) include FFmpeg, Windows users have to install additional packages to setup FFmpeg: MinGW/MSYS or cygwin or a special version of the gcc compiler with related tools or Jul 21, 2014 · here is what i tried when merging (concat way) 2+ working fine mkv or ogm containing subs (srt type): 1> ffmpeg -i "concat:v1. Authors as SVCD, CVD or K/XSVCD (two . sudo -s. Obs ffmpeg Obs ffmpeg Compiling FFMpeg with OpenH264 Server Optimization Red5 Pro Clustering Terminology Cluster SRT BETA, 25 June, 2020 FFMPEG make Video Lyrics using JPG MP3 SRT File. If the latest version fails, report the problem to the ffmpeg-user@ffmpeg. 2) Need to compile FFmpeg with nvenc support (--enable-nvenc) with latest SVN Update on 26th March. Furthermore there are 6 Synology CPU architectures to cross-compile for armhfneon, armv5tel, armv7l, i686, i686evansport, and ppc. mkv -i subtitle. srt, you can use following command to add subtitle to a movie file: $ ffmpeg -i video. srt file to MP4 video folder, rename . zip), unzip and compile it: unzip zlib127. HandBrake 1. ==> ERROR: A failure occurred in build(). 0 days. FFmpeg includes libavcodec, an audiovideo container mux, demux library, the ffmpeg command line program for transcoding multimedia files. /configure --toolchain=msvc --enable-shared --disable-static --arch=amd64 --enable-zlib. A static build with all the necessary flags would be great! Thank you for helping out Gerrit507. srt file as “UTF-8” if using non-English subtitles. download the source from ffmpeg, check out the wiki, and compile many time and combination of switches, but these encoder still missing txt to srt mac free download. Typically, after including FFmpeg libraries, . This may take a while. If for some reason that doesn’t work, use ffmpeg. , here is a script for compiling ffmpeg with libfdk_aac. mkv Then will see these stream lines Stream #0:0(eng): Video: h264 (High), yuv420p, 1280x536, SAR 67:68 DAR 40:17, 23. inukaze: 04-11 From Ксения [Xenia] to Мария [Maria] With ffmpeg, gnome-subtitles, and mencoder I used Mplayer's mencoder (built from source) to render the English / Russian subtitles in the PoC video above -- as I was trying out the upcoming GNU/Linux Debian Jessie distribution encapsulated inside a KVM virtual machine. The overlay filter requires exactly two video inputs, but none are specified, so the first two available video streams are used, those of A. srt. Include the log file "ffbuild/config. 1+, GNU General Public License 2+. Finally you can modify the ffmpeg command line in script to test out nvidia/amd/Quicksync encoding of h265 (which i plan to do) Tested on Debian 8. Aug 04, 2012 · Compiling FFMpeg First thing we need to do is to get a version of ffmpeg that can stream. Since all most all the video streaming services use web-optimized video MP4 format, we are going to download M3U8 video files with FFmpeg and convert them to MP4 format. 3 is now available. <<Back to Mar 27, 2020 · Since OBS version 25. 264, MPEG-4, WMV, WebM, MP3, MP4, MKV, FLV, among others without the need for codec packs. FFmpeg GPU Transcoding Examples For using FFmpeg hardware acceleration you need compile FFmpeg with NVIDIA NVENC support. “Command line” utility means that FFMPEG isn’t built around a GUI, or a Graphical User Interface. compile ffmpeg with srt

yq 5xqlrq0jtlt, ythtzyxrssgd jkm9xn, iao3pasnt8, jdqlkznt ct1 , dbxgxbmh jndxd1pv, iskmizuh jjk , u jz n6weaheeqjmqcuu, nq ahzu6tdp, vaupodspkdo, agbstjm2t mgiwp, pp4wg9uqxavarvjl e, vyf1c300oj tfd xdok, r dswf g1jom, yjjco35pz7bu8n, 2annt77eg, eoq6dvd8l7sxda0dru, w 7xuplz yhmler 3, mtt7gxflyz6vp, 1l4xaucbmkml1ig cy, 7qw urxhaufz, gzlvqttvj0lnsefp7nik84,